lo stagista inaspettato streaming gratis

 

 

 

 

Alluc video search engine Alluc video search engine, currently indexing 17 million streaming and 20m download links. stream download. Moviewatcher For (searchTerms) there were found results for Movies and TV Series. Guarda film Lo stagista inaspettato completo online 2015 HD Dove posso vedere i film in HD Gratis?((Streaming Film)) Lo stagista inaspettato (SUB-ITA) 2015 - Film Completo HD. Lo stagista inaspettato. 29.95. Add to cart.Nonostante le diffidenze iniziali, Ben dimostrer alla fondatrice della compagnia (Anne Hathaway) di essere una valida risorsa per lazienda e tra i due nascer un inaspettata sintonia. Ita Streaming - Lo stagista inaspettato - CINEBLOG Nowvideo putlocker film senza limiti.Film Alla ricerca di Dory Streaming ITA (2016) Nowvideo, gratis, senza limiti alla ricerca di dory streaming ita hd (Film 2016) Completo (FILM ITA 2016). Lo stagista inaspettato /. Other Authors: Meyers, Nancy, Warner Bros. The Intern - Lo stagista inaspettato (2015).BRrip.XviD - ItalianUna societ di moda assume come stagista Ben Whittaker, un settantenneColor space : YUV Chroma subsampling : 4:2:0 Bit depth : 8 bits Scan type : Progressive Compression mode : Lossy Bits/(PixelFrame) : 0.205 Stream size : 1.21 Lo Stagista Inaspettato Torrents - TorrentFunk Download Lo Stagista Inaspettato Torrent at TorrentFunk. This week only Apple Music is having a huge sale.The Intern Lo stagista inaspettato 2015 BRrip XviD Italian Lo stagista inaspettato Streaming ITA Gratis Altadefinizione. Free search lo stagista inaspettato ita and download. Unlimited Torrents files Download service Anytorr!Choose your lo stagista inaspettato ita torrent file and dont forget: seed what you leech! STREAMING DIRETTOAudio 6 Video 7 AGGIORNAMENTO VERSIONE.Torrents. Age.

Size. S. Lo Stagista Inaspettato 2015 iTALiAN MD HDRip XviD-LL1[MT] avi Download from Movies.

[spoiler] General Complete name : Lo stagista inaspettato - The Intern (2015).ita.eng.sub.ita.eng-MIRCrew.avi Format : AVI Format/Info : Audio Video Interleave File size : 1.98 GiB Duration : 2h 1mn Overall bit rate : 2 336 Kbps Movie name : ENCODED by.WWWilcorsaroverde.org Writing applicationBen dimostrer alla fondatrice della compagnia (Anne Hathaway) di essere una valida risorsa per lazienda e tra i due nascer un inaspettata sintonia.inaspettato 2015 full movie online streaming Lo stagista inaspettato 2015 streaming download Lo stagista inaspettato watch Lo stagista lo stagista inaspettato - ShareDir.com lets you search and download files without limits from various file sharing and hosting sites like Rapidgator, Depositfiles, Uploaded, Nitroflare, Keep2Share.Source title: Lo stagista inaspettato (2015) - FILM GRATIS IN STREAMING E. Can you match the LO STAGISTA INASPETTATO - N.2274? This game lets you have 8 tries i.e as many tries as there are questions.Test your knowledge about LO STAGISTA INASPETTATO - N.2274 with this online quiz. For faster navigation, this Iframe is preloading the Wikiwand page for Lo stagista inaspettato. programme. (Italiano) Lo Stagista inaspettato. Comedy /. saturday 21 novembre ore 21:00. Lo Stagista Inaspettato Film Completo Streaming Ita Youtube. Lo Stagista Inaspettato Dvd Amazon It Robert De Niro Anne.ou regarder beauty and the beast en streaming gratuit.html. streaming koh lanta episode 12html. BitTorrent Comment: 10/10 (4) lo stagista inaspettato download Lo stagista inaspettato Streaming ITA Gratis | Altadefinizione altadefinizione.live/ streaming-film/309-leastTranslate this page Cerca il tuo film: September 2015 121 minutes. Fast and Free Torrents Downloads in Torrents7Day. Torrents7Day » video » Lo stagista inaspettato (2015).YUV Chroma subsampling : 4:2:0 Bit depth : 8 bits Scan type : Progressive Bits/(PixelFrame) : 0.117 Stream size : 2.70 GiB (94) Writing library : x264 core 130 r2273 b3065e6 Encoding settings Color space : YUV Chroma subsampling : 4:2:0 Bit depth : 8 bits Scan type : Progressive Bits/(PixelFrame) : 0.210 Stream size : 3.85 GiB (94) Writing library : x264 core 146 r2538 121396c EncodingItalian Default : Yes Forced : No. screenshots BDRip: Lo Stagista Inaspettato (2015). Lo.Stagista.Inaspettato.2015.iTA.AC3.2.0.iTUNES.FullHD.m1080p.x264.[scambiofile.info].mkv (1.9 GB) 0 B Qualcosa di inaspettato [HD] (2015) WEBDL 1080p.mp4 1.7 GB Transformers 5Bluray Openload, gratuit Stagista Inaspettato Bluray Openload, free Stagista Inaspettato Bluray Openload. Lo stagista inaspettato. Una societ di moda assume uno stagista decisamente fuori dagli schemi: Ben Whittaker (Robert De Niro) un settantenne pensionato che ha scoperto che in fondo la pensione non come immaginava e decide cos di sfruttare la prima occasione utile per rimettersi in pista. Lo stagista inaspettato film completo streaming gratis ITA HD 720p.[GUARDA!! Lo stagista inaspettato film completo ITA HD 720p. This fundraiser closed almost 2 years ago. Your donation to 25 Fields for Oregon will be securely processed with Stripe. Download Lo stagista inaspettato with the best torrent search engine.Results for Lo stagista inaspettato torrent above. TITLE: SIZE Lo stagista inaspettato - Trailer - YouTube Lo stagista inaspettato - Trailer LoSpettacolo. LoadingImage of lo stagista inaspettato DVD Italian Import. Lo stagista inaspettato - Trailer. Ben un pensionato settantenne e vedovo che detesta la solitudine e non sa come passare il tempo. Decide cos di ripartire dalla gavetta, approfittando di un insolito programma di stagisti Lo Stagista Inaspettato - Lesperienza Non Invecchia Mai - Pod Dal Film. STREAMING DIRETTO. Audio 6 Video 7 AGGIORNAMENTO VERSIONE.seeders:20. leechers:2. Lo Stagista Inaspettato 2015 iTALiAN MD HDRip XviD LL1. html bbcode. Your search did not match any documents, or server error has occured. Chroma subsampling : 4:2:0 Bit depth : 8 bits Scan type : Progressive Bits/(PixelFrame) : 0.256 Stream size : 1.46 GiB (71) Writing library : x264 core 142 r2479 dd79a61 Encoding settingswww.nitroflare.com/view/C081D39CCBA23BC/Lo.stagista.inaspettato.2015.ita.BDRip.part3.rar http Gallery of Images "Lo stagista inaspettato streaming nowvideo download" (726 pics)Lista Film: Lettera L CB01MOVIE FILM GRATIS HD. Search Results For: Tag/streaming Ita Lo Stagista Inaspettato. Nothing Found. Best! inaspettato in inglese. 2nd. lo stagista inaspettato streaming. 3rd.lo hobbit un viaggio inaspettato streaming. (alt.) lo stagista inaspettato film completo. Play Now (Stream).Cogliendo lopportunit per rimettersi in gioco, diventa stagista senior in un sito di moda online, fondato e diretto da Jules Ostin, interpretata dal premio Oscar AnneFiles: Lo.Stagista.Inaspettato.2015.BDrip.1080p.x264.ITA.ENG.AC3Carnil91[TNTvillage].mkv (9.

5 GB). Search Results For: streaming ita lo stagista inaspettato.cb01.zone ex cineblog01 Gratis!. Nessuna registrazione richiesta. Commentate i film loggandovi con Facebook, Twitter, Google o Disqus. [spoiler] General Complete name : Lo stagista inaspettato - The Intern (2015).ita.eng.sub.ita.eng-MIRCrew.avi Format : AVI Format/Info : Audio Videobits Scan type : Progressive Compression mode : Lossy Bits/(PixelFrame) : 0.205 Stream size : 1.21 GiB (61) Writing library : XviD 64. Lo Stagista Inaspettato 2015 iTALiAN READNFO MD CAM XviD-LL1. Continue to video. Direct Download. Lo-Stagista-Inaspettato-The-Intern-2015-iTALiAN-BRRip-XviD-B1 Year.Stream: Download torrents safely and Anonymously with Free Torrent VPN by SPYOFF. Get VPN NOW! Music Library. Streaming. Radio. Collection.for select it use VLC or dvd player home. not use wmp. Lo stagista inaspettato - The Intern (2015). YouTube Video: Category Lo stagista inaspettato (2015).BRrip.XviD - Italian English.Ac3.5.1.Sub.ita.eng.MIRCrew.Lo stagista inaspettato - The intern (2015 ITA/ENG Sub ITA/ENG) [720p] BDMux. BDRip. Warning: fileputcontents(/srv/users/serverpilot/apps/cinemags/public/wp-content/plugins/stupidpie-1.8/cache/sessions//EOIGTJONrENrM9DfPkqMdXtorFFoR3mp9A9TRNNf): failed to open stream Lo stagista inaspettato - con Robert De Niro, Anne Hathaway, Rene Russo, Anders Holm, JoJo Kushner, Andrew Rannells, Adam Devine, Zack Pearlman, Jason Orley, Christina Scherer, Nat Wolff, Linda Lavin, Celia Weston, C.J. Wilson, Mary Kay Place, Erin Mackey, Christina Brucato, Wallis Il risultato un film riuscito, inaspettato e divertente!Altadefinizione - Film Streaming in Alta Definizione Gratis — Film in Alta Definizione in Streaming gratis e senza limiti visibili su tutti i dispositivi senza pubblicit su AltaDefinizione.tv ex FilmStream.me. Audio tag: 0x2000 (AC3) Canali: 5 Chunks: 45,575 Dimensione stream: 583,351,444 bytes (556.32729 MiB) Tipo di bitstream (bs): AC3 Frames (bs)The Intern - Lo stagista inaspettato (2015).BRrip.XviD - Italian English.Ac3.5.1.Sub.ita.eng.MIRCrew. posted by robbyrs in Movies - Comedy. Warning: fileputcontents(/srv/users/serverpilot/apps/nyeni/public/wp-content/plugins/stupidpie-1.8/cache/sessions//Yu2t8Uhj0hYPWqGebZwDKMB1wNeMpDi5tCVISmul): failed to open stream Watch lo stagista inaspettato streams online. Click for organised searchterms hoster selection.megadrive.tv - 22.09.2016. Lo stagista inaspettato Streaming (2015) ITA Gratis. FILM - Lo stagista inaspettato, Una societ di moda assume uno stagista decisamente fuori dagli schemi: Ben Whittaker (Robert De Niro) un settantenne pensionato che ha scoperto che in fondo la pensione non come immaginava e decide cos di sfruttare la prima occasione utile per rimettersi in Direttore: Nancy Meyers. Guardare Lo stagista inaspettato Film Streaming Online.Istantaneamente lo streaming di contenuti gratis film apparentemente su qualsiasi dispositivo e connettersi alla rete migliore di scelta per la visione di intrattenimento gratuito online in un ambiente Stream NowLo.Stagista.Inaspettato .2015.iTA.AC3iTUNES.BDRip.XviD.[scambiofile.info].torrentproject.se Lo Stagista Inaspettato (2015) iTA AC3iTUNES BDRip XviD Video. 20 hours. Using BitTorrent is legal, downloading copyrighted material isnt. Direct Download. Lo-Stagista-Inaspettato-The-Intern-2015-iTALiAN-BRRip-XviD-B1 Year.Stream: Download torrents safely and Anonymously with Free Torrent VPN by SPYOFF. Get VPN NOW! Fallen Streaming ITA altadefinizione HD gratis.Ita Streaming - Lo stagista inaspettato > CINEBLOG Nowvideo putlocker film senza limiti HD gratis.

related posts